Hellboy *2019* [1080p] [AMZN] [WEBRip] [DDP5.1] [x264] [NTG] [ENG]

Kategoria: Filmy


Data dodania: 10-10-2019 15:07:35


Data aktualizacji: 09-12-2019 18:28:55


Autor: kamil


Komentarze: 0

Rozmiar: 6.88 GB


Seedy: 683


Peery: 57


Pobrano: 1366 razy


Aktualizuj statystyki

OPIS

Pojmana i unieszkodliwiona przed wiekami królowa czarownic powraca do naszego świata, by znów nieść śmierć i zniszczenie. Jej demoniczny plan zakłada sprowadzenie na Ziemię plag tak potężnych, że ludzkość nie ma z nimi żadnych szans. Tylko bohater o tak piekielnych korzeniach jak Hellboy jest w stanie stawić czoła zagrożeniu i podjąć walkę z czarownicą i jej armią. Jego szanse wzrosną jeszcze bardziej, gdy okaże się dziedzicem potęgi samego Króla Artura. Jednak nawet on w pojedynkę nie jest w stanie wygrać wojny z siłami zła. Zanim dojdzie do decydującego starcia Hellboy musi odzyskać swych dawnych sprzymierzeńców…

INFO

Produkcja: USA, Wielka Brytania, Bułgaria
Gatunek: Fantasy, Akcja
Premiera: 12 kwietnia 2019 (Polska), 4 kwietnia 2019 (świat)
Reżyseria: Neil Marshall
Scenariusz: Andrew Cosby

OBSADA

★ David Harbour .... Hellboy
★ Milla Jovovich .... Nimue, królowa krwi
★ Ian McShane .... Profesor Bruttenholm
★ Sasha Lane .... Alice Monaghan
★ Daniel Dae Kim .... Ben Daimio
★ Thomas Haden Church .... Lobster Johnson
★ Alistair Petrie .... Lord Adam Glaren
★ Penelope Mitchell .... Ganeida

DANE TECHNICZNE

Video
ID : 1
Format : AVC
Format/Info : Advanced Video Codec
Format profile : [email protected]
Format settings : CABAC / 4 Ref Frames
Format settings, CABAC : Yes
Format settings, ReFrames : 4 frames
Codec ID : V_MPEG4/ISO/AVC
Duration : 2 h 1 min
Bit rate mode : Constant
Bit rate : 7 492 kb/s
Nominal bit rate : 10 000 kb/s
Width : 1 920 pixels
Height : 800 pixels
Display aspect ratio : 2.40:1
Frame rate mode : Constant
Frame rate : 23.976 (24000/1001) FPS
Color space : YUV
Chroma subsampling : 4:2:0
Bit depth : 8 bits
Scan type : Progressive
Bits/(Pixel*Frame) : 0.203
Stream size : 6.33 GiB (92%)
Default : Yes
Forced : No
Color range : Limited
Color primaries : BT.709
Transfer characteristics : BT.709
Matrix coefficients : BT.709

Audio
ID : 2
Format : E-AC-3
Format/Info : Enhanced AC-3
Commercial name : Dolby Digital Plus
Codec ID : A_EAC3
Duration : 2 h 1 min
Bit rate mode : Constant
Bit rate : 640 kb/s
Channel(s) : 6 channels
Channel layout : L R C LFE Ls Rs
Sampling rate : 48.0 kHz
Frame rate : 31.250 FPS (1536 SPF)
Compression mode : Lossy
Stream size : 554 MiB (8%)
Language : English
Service kind : Complete Main
Default : Yes
Forced : No

Tags: 2019, eng